+ swissad-malaria.com »  :::: Hollywood Zone » English PC Videos (High-Definition)
|- Mission: Impossible - Fallout (2018) - Official Trailer - [ HD 720p ]


100% Bill Offer

Mission: Impossible - Fallout (2018) - Official Trailer - [ HD 720p ]

0 Members and 1 Guest are viewing this topic.

February 05, 2018, 09:53:24 AM
  • Admin
  • Legend Member
  • ****
  • Topic Author
  • Thank You: 2256
  • Reputation: 597
  • Activity:
    23.6%
  • Country: in
  • Posts: 3641
  • Topics: 2224
  • Join Date: Dec 2013
  • ShareSpark Member
   
Mission: Impossible - Fallout (2018) - Official Trailer -
[ HD 720p ]



   Poster























General
Format                      : MPEG-4
Format profile              : Base Media / Version 2
Codec ID                    : mp42 (isom/mp42)
File size                   : 21.7 MiB
Duration                    : 2 min 32 s
Overall bit rate mode       : Variable
Overall bit rate            : 1 199 kb/s
Encoded date                : UTC 2018-02-05 01:11:36
Tagged date                 : UTC 2018-02-05 01:11:36
gsst                        : 0
gstd                        : 152206

Video
ID                          : 1
Format                      : AVC
Format/Info                 : Advanced Video Codec
Format profile              : [email protected]
Format settings             : CABAC / 3 Ref Frames
Format settings, CABAC      : Yes
Format settings, ReFrames   : 3 frames
Codec ID                    : avc1
Codec ID/Info               : Advanced Video Coding
Duration                    : 2 min 32 s
Bit rate                    : 1 069 kb/s
Width                       : 1 280 pixels
Height                      : 720 pixels
Display aspect ratio        : 16:9
Frame rate mode             : Variable
Frame rate                  : 23.976 (24000/1001) FPS
Minimum frame rate          : 23.974 FPS
Maximum frame rate          : 23.981 FPS
Color space                 : YUV
Chroma subsampling          : 4:2:0
Bit depth                   : 8 bits
Scan type                   : Progressive
Bits/(Pixel*Frame)          : 0.048
Stream size                 : 19.4 MiB (89%)
Encoded date                : UTC 2018-02-05 01:11:36
Tagged date                 : UTC 2018-02-05 01:11:36
Color range                 : Limited
Color primaries             : BT.709
Transfer characteristics    : BT.709
Matrix coefficients         : BT.709

Audio
ID                          : 2
Format                      : AAC
Format/Info                 : Advanced Audio Codec
Format profile              : LC
Codec ID                    : mp4a-40-2
Duration                    : 2 min 32 s
Bit rate mode               : Variable
Bit rate                    : 126 kb/s
Channel(s)                  : 2 channels
Channel positions           : Front: L R
Sampling rate               : 44.1 kHz
Frame rate                  : 43.066 FPS (1024 SPF)
Compression mode            : Lossy
Stream size                 : 2.28 MiB (10%)
Encoded date                : UTC 2018-02-05 01:11:36
Tagged date                 : UTC 2018-02-05 01:11:36








      












      

Share this topic on FacebookShare this topic on GoogleShare this topic on MySpaceShare this topic on TwitterShare this topic on Yahoo

« Last Edit: February 05, 2018, 09:59:55 AM by тнє ωαll 81317 »



Thanks given by:


February 05, 2018, 09:11:17 PM
Reply #1
  • Elite Forces
  • ****
  • Thank You: 231
  • Reputation: 99
  • Activity:
    9%
  • Country: sa
  • Posts: 1151
  • Topics: 116
  • Join Date: Jan 2017
  • ShareSpark Member

Tags:
 

Related Topics





Back to top
Sitemap