+ swissad-malaria.com »  :::: Dubbed Zone (Dubbed English in Hindi) » TV Shows (Dubbed in Hindi)
|- Mount Everest (Hindi) (Full Information) - HD [720p]


100% DTH Offer

Mount Everest (Hindi) (Full Information) - HD [720p]

0 Members and 1 Guest are viewing this topic.

September 11, 2018, 01:42:06 PM
  • Team SSX
  • Special Member
  • ***
  • Topic Author
  • Thank You: 122
  • Reputation: 19
  • Activity:
    18.2%
  • Country: pk
  • Posts: 722
  • Topics: 494
  • Join Date: Nov 2012
  • Upgrade My Reputation







Release Info:
Code: [Select]
Complete name                            : Mount_Everest_in_Hindi_Full_Information_Himalaya.720p.By.Rj.Rabasha.mp4
Format                                   : MPEG-4
Format profile                           : Base Media / Version 2
Codec ID                                 : mp42 (isom/mp42)
File size                                : 54.5 MiB
Duration                                 : 9 min 16 s
Overall bit rate mode                    : Variable
Overall bit rate                         : 821 kb/s
Encoded date                             : UTC 2018-06-02 17:24:49
Tagged date                              : UTC 2018-06-02 17:24:49
gsst                                     : 0
gstd                                     : 556768

Video
ID                                       : 1
Format                                   : AVC
Format/Info                              : Advanced Video Codec
Format profile                           : [email protected]
Format settings                          : CABAC / 3 Ref Frames
Format settings, CABAC                   : Yes
Format settings, ReFrames                : 3 frames
Codec ID                                 : avc1
Codec ID/Info                            : Advanced Video Coding
Duration                                 : 9 min 16 s
Bit rate                                 : 691 kb/s
Width                                    : 1 280 pixels
Height                                   : 720 pixels
Display aspect ratio                     : 16:9
Frame rate mode                          : Constant
Frame rate                               : 30.000 FPS
Color space                              : YUV
Chroma subsampling                       : 4:2:0
Bit depth                                : 8 bits
Scan type                                : Progressive
Bits/(Pixel*Frame)                       : 0.025
Stream size                              : 45.9 MiB (84%)
Encoded date                             : UTC 2018-06-02 17:24:49
Tagged date                              : UTC 2018-06-02 17:24:49
Color range                              : Limited
Color primaries                          : BT.709
Transfer characteristics                 : BT.709
Matrix coefficients                      : BT.709

Audio
ID                                       : 2
Format                                   : AAC
Format/Info                              : Advanced Audio Codec
Format profile                           : LC
Codec ID                                 : mp4a-40-2
Duration                                 : 9 min 16 s
Bit rate mode                            : Variable
Bit rate                                 : 126 kb/s
Channel(s)                               : 2 channels
Channel positions                        : Front: L R
Sampling rate                            : 44.1 kHz
Frame rate                               : 43.066 FPS (1024 SPF)
Compression mode                         : Lossy
Stream size                              : 8.33 MiB (15%)
Language                                  : Hindi
Encoded date                             : UTC 2018-06-02 17:24:49
Tagged date                              : UTC 2018-06-02 17:24:49

















Code: [Select]
http://openload.co/f/gFZRoaMRepQ



Code: [Select]
http://bdupload.info/d92yc5walwtx



Code: [Select]
http://www.indishare.me/bp78c5cr1v3s



Code: [Select]
http://uptobox.com/3ivp7k8507wl




Code: [Select]
http://vidoza.net/6d5wf8d2j9od.html







Share this topic on FacebookShare this topic on GoogleShare this topic on MySpaceShare this topic on TwitterShare this topic on Yahoo

« Last Edit: September 11, 2018, 01:42:27 PM by Rabasha »



Tags: everest 
 

Related Topics

  Subject / Started by Replies Last post
0 Replies
833 Views
Last post May 10, 2012, 07:44:39 PM
by мя.иαωαz мυgнαl
1 Replies
743 Views
Last post December 13, 2013, 04:49:04 PM
by sharesparkx
0 Replies
551 Views
Last post October 14, 2014, 03:01:44 AM
by DjiSamSoe
1 Replies
991 Views
Last post June 13, 2016, 09:52:24 PM
by jami5490
4 Replies
1135 Views
Last post April 05, 2017, 05:55:51 AM
by MayurSuccess




Back to top
Sitemap